Commit 7756859a authored by Ronald S. Bultje's avatar Ronald S. Bultje

fate: add BMP tests.

parent bc0bdda7
......@@ -29,6 +29,7 @@ include $(SRC_PATH)/tests/fate/amrnb.mak
include $(SRC_PATH)/tests/fate/amrwb.mak
include $(SRC_PATH)/tests/fate/atrac.mak
include $(SRC_PATH)/tests/fate/audio.mak
include $(SRC_PATH)/tests/fate/bmp.mak
include $(SRC_PATH)/tests/fate/cdxl.mak
include $(SRC_PATH)/tests/fate/dct.mak
include $(SRC_PATH)/tests/fate/demux.mak
......
FATE_BMP += fate-bmp-1bit
fate-bmp-1bit: CMD = framecrc -i $(SAMPLES)/bmp/test1.bmp -pix_fmt rgb24
FATE_BMP += fate-bmp-4bit
fate-bmp-4bit: CMD = framecrc -i $(SAMPLES)/bmp/test4.bmp -pix_fmt rgb24
FATE_BMP += fate-bmp-4bit-os2
fate-bmp-4bit-os2: CMD = framecrc -i $(SAMPLES)/bmp/test4os2v2.bmp -pix_fmt rgb24
FATE_BMP += fate-bmp-8bit
fate-bmp-8bit: CMD = framecrc -i $(SAMPLES)/bmp/test8.bmp -pix_fmt rgb24
FATE_BMP += fate-bmp-8bit-os2
fate-bmp-8bit-os2: CMD = framecrc -i $(SAMPLES)/bmp/test8os2.bmp -pix_fmt rgb24
FATE_BMP += fate-bmp-15bit
fate-bmp-15bit: CMD = framecrc -i $(SAMPLES)/bmp/test16.bmp -pix_fmt rgb555le
FATE_BMP += fate-bmp-15bit-mask
fate-bmp-15bit-mask: CMD = framecrc -i $(SAMPLES)/bmp/test16bf555.bmp -pix_fmt rgb555le
FATE_BMP += fate-bmp-16bit-mask
fate-bmp-16bit-mask: CMD = framecrc -i $(SAMPLES)/bmp/test16bf565.bmp -pix_fmt rgb565le
FATE_BMP += fate-bmp-24bit
fate-bmp-24bit: CMD = framecrc -i $(SAMPLES)/bmp/test24.bmp
FATE_BMP += fate-bmp-32bit
fate-bmp-32bit: CMD = framecrc -i $(SAMPLES)/bmp/test32.bmp -pix_fmt bgr24
FATE_BMP += fate-bmp-32bit-mask
fate-bmp-32bit-mask: CMD = framecrc -i $(SAMPLES)/bmp/test32bf.bmp -pix_fmt bgr24
FATE_BMP += fate-bmp-rle4
fate-bmp-rle4: CMD = framecrc -i $(SAMPLES)/bmp/testcompress4.bmp -pix_fmt rgb24
FATE_BMP += fate-bmp-rle8
fate-bmp-rle8: CMD = framecrc -i $(SAMPLES)/bmp/testcompress8.bmp -pix_fmt rgb24
FATE_TESTS += $(FATE_BMP)
fate-bmp: $(FATE_BMP)
#tb 0: 1/25
0, 0, 0, 1, 16256, 0xdbcf881d
#tb 0: 1/25
0, 0, 0, 1, 16256, 0xdbcf881d
#tb 0: 1/25
0, 0, 0, 1, 16256, 0x44675948
#tb 0: 1/25
0, 0, 0, 1, 24384, 0x4c968301
#tb 0: 1/25
0, 0, 0, 1, 24384, 0x325dd8d9
#tb 0: 1/25
0, 0, 0, 1, 24384, 0x325dd8d9
#tb 0: 1/25
0, 0, 0, 1, 24384, 0x325dd8d9
#tb 0: 1/25
0, 0, 0, 1, 24384, 0x322d81f4
#tb 0: 1/25
0, 0, 0, 1, 19800, 0x563b599a
#tb 0: 1/25
0, 0, 0, 1, 24384, 0xa7aa6b9b
#tb 0: 1/25
0, 0, 0, 1, 24384, 0xa7aa6b9b
#tb 0: 1/25
0, 0, 0, 1, 24384, 0x322d81f4
#tb 0: 1/25
0, 0, 0, 1, 24384, 0xa7aa6b9b
Markdown is supported
0% or .
You are about to add 0 people to the discussion. Proceed with caution.
Finish editing this message first!
Please register or to comment