Commit 832ba44d authored by Anton Khirnov's avatar Anton Khirnov
Browse files

avconv: saner output video timebase.

r_frame_rate should in theory have something to do with input framerate,
but in practice it is often made up from thin air by lavf. So unless we
are targeting a constant output framerate, it's better to just use input
stream timebase.

Brings back dropped frames in nuv and cscd tests introduced in
cd1ad18a
parent 87d7a92b
......@@ -2450,13 +2450,30 @@ static int transcode_init(OutputFile *output_files,
ost->resample_width = icodec->width;
ost->resample_pix_fmt = icodec->pix_fmt;
if (!ost->frame_rate.num)
ost->frame_rate = ist->st->r_frame_rate.num ? ist->st->r_frame_rate : (AVRational) { 25, 1 };
if (ost->enc && ost->enc->supported_framerates && !ost->force_fps) {
int idx = av_find_nearest_q_idx(ost->frame_rate, ost->enc->supported_framerates);
ost->frame_rate = ost->enc->supported_framerates[idx];
/*
* We want CFR output if and only if one of those is true:
* 1) user specified output framerate with -r
* 2) user specified -vsync cfr
* 3) output format is CFR and the user didn't force vsync to
* something else than CFR
*
* in such a case, set ost->frame_rate
*/
if (!ost->frame_rate.num &&
(video_sync_method == VSYNC_CFR ||
(video_sync_method == VSYNC_AUTO &&
!(oc->oformat->flags & (AVFMT_NOTIMESTAMPS | AVFMT_VARIABLE_FPS))))) {
ost->frame_rate = ist->st->r_frame_rate.num ? ist->st->r_frame_rate : (AVRational){25, 1};
if (ost->enc && ost->enc->supported_framerates && !ost->force_fps) {
int idx = av_find_nearest_q_idx(ost->frame_rate, ost->enc->supported_framerates);
ost->frame_rate = ost->enc->supported_framerates[idx];
}
}
codec->time_base = (AVRational){ost->frame_rate.den, ost->frame_rate.num};
if (ost->frame_rate.num) {
codec->time_base = (AVRational){ost->frame_rate.den, ost->frame_rate.num};
video_sync_method = VSYNC_CFR;
} else
codec->time_base = ist->st->time_base;
#if CONFIG_AVFILTER
if (configure_video_filters(ist, ost)) {
......
......@@ -254,7 +254,8 @@ attachments.
@item -vframes @var{number} (@emph{output})
Set the number of video frames to record. This is an alias for @code{-frames:v}.
@item -r[:@var{stream_specifier}] @var{fps} (@emph{input/output,per-stream})
Set frame rate (Hz value, fraction or abbreviation), (default = 25).
Set frame rate (Hz value, fraction or abbreviation), (default = 25). For output
streams implies @code{-vsync cfr}.
@item -s[:@var{stream_specifier}] @var{size} (@emph{input/output,per-stream})
Set frame size. The format is @samp{wxh} (default - same as source).
The following abbreviations are recognized:
......
#tb 0: 2/25
#tb 0: 1/125
#tb 1: 1/22050
0, 0, 0, 1, 259200, 0x7e91df07
1, 0, 0, 1024, 2048, 0x3d042426
1, 1024, 1024, 1024, 2048, 0x5bcae456
0, 1, 1, 1, 259200, 0x7e91df07
0, 10, 10, 1, 259200, 0x7e91df07
1, 2048, 2048, 1024, 2048, 0xb6043655
1, 3072, 3072, 1024, 2048, 0x6fdaffad
0, 2, 2, 1, 259200, 0xc468c119
0, 20, 20, 1, 259200, 0xc468c119
1, 4096, 4096, 1024, 2048, 0xf86700cb
1, 5120, 5120, 1024, 2048, 0x045e46c1
0, 3, 3, 1, 259200, 0x0e058930
0, 30, 30, 1, 259200, 0x0e058930
1, 6144, 6144, 1024, 2048, 0x000df0e5
0, 4, 4, 1, 259200, 0xa0261310
0, 40, 40, 1, 259200, 0xa0261310
1, 7168, 7168, 1024, 2048, 0x8f5f12fb
1, 8192, 8192, 1024, 2048, 0xd516f6b0
0, 5, 5, 1, 259200, 0x78ca9aba
0, 50, 50, 1, 259200, 0x78ca9aba
1, 9216, 9216, 1024, 2048, 0xa1fe2bd3
1, 10240, 10240, 1024, 2048, 0x3647087a
0, 6, 6, 1, 259200, 0x4971f7b3
0, 60, 60, 1, 259200, 0x4971f7b3
1, 11264, 11264, 1024, 2048, 0xd2ee584e
1, 12288, 12288, 1024, 2048, 0xf132088c
0, 7, 7, 1, 259200, 0x7dc2cff7
0, 70, 70, 1, 259200, 0x7dc2cff7
1, 13312, 13312, 1024, 2048, 0x1efc0eb1
0, 8, 8, 1, 259200, 0x8cbc53d5
0, 80, 80, 1, 259200, 0x8cbc53d5
1, 14336, 14336, 1024, 2048, 0xeb73f402
1, 15360, 15360, 1024, 2048, 0x75cb3d20
0, 9, 9, 1, 259200, 0xcccd77e3
0, 90, 90, 1, 259200, 0xcccd77e3
1, 16384, 16384, 1024, 2048, 0x85a501b6
1, 17408, 17408, 1024, 2048, 0xa4eb312d
0, 10, 10, 1, 259200, 0x6b3e0fb3
0, 100, 100, 1, 259200, 0x6b3e0fb3
1, 18432, 18432, 1024, 2048, 0xf0aaf8c7
0, 11, 11, 1, 259200, 0x281dd175
0, 110, 110, 1, 259200, 0x281dd175
1, 19456, 19456, 1024, 2048, 0x65371cda
1, 20480, 20480, 1024, 2048, 0x25512cd6
1, 21504, 21504, 1024, 2048, 0xc81410e3
......
#tb 0: 33/1000
#tb 0: 1/90000
#tb 1: 1/48000
0, 0, 0, 1, 535680, 0x889c32cf
0, 0, 0, 0, 535680, 0x889c32cf
1, 0, 0, 1624, 6496, 0x00000000
0, 1, 1, 1, 535680, 0x0b1ef044
0, 2970, 2970, 0, 535680, 0x0b1ef044
1, 1624, 1624, 1596, 6384, 0x00000000
0, 2, 2, 1, 535680, 0xa7d0818b
0, 5940, 5940, 0, 535680, 0xa7d0818b
1, 3220, 3220, 1596, 6384, 0x00000000
0, 3, 3, 1, 535680, 0xf392e4e1
0, 8910, 8910, 0, 535680, 0xf392e4e1
1, 4816, 4816, 1596, 6384, 0x00000000
0, 4, 4, 1, 535680, 0x08480c69
0, 11880, 11880, 0, 535680, 0x08480c69
1, 6412, 6412, 1596, 6384, 0x00000000
0, 5, 5, 1, 535680, 0x2b8af1ed
0, 14850, 14850, 0, 535680, 0x2b8af1ed
1, 8008, 8008, 1624, 6496, 0xe2034d04
0, 6, 6, 1, 535680, 0x0d58e062
0, 17820, 17820, 0, 535680, 0x0d58e062
1, 9632, 9632, 1596, 6384, 0x089c9157
0, 7, 7, 1, 535680, 0xd140ced0
0, 20790, 20790, 0, 535680, 0xd140ced0
1, 11228, 11228, 1596, 6384, 0xeed5743c
0, 8, 8, 1, 535680, 0xbd0e6652
0, 23760, 23760, 0, 535680, 0xbd0e6652
1, 12824, 12824, 1596, 6384, 0x71de6b34
0, 9, 9, 1, 535680, 0xdc2f2a6b
0, 26730, 26730, 0, 535680, 0xdc2f2a6b
1, 14420, 14420, 1596, 6384, 0xc0d67710
0, 10, 10, 1, 535680, 0x97c31a38
0, 29700, 29700, 0, 535680, 0x97c31a38
1, 16016, 16016, 1624, 6496, 0x35786490
0, 11, 11, 1, 535680, 0x1a2bdf38
0, 32670, 32670, 0, 535680, 0x1a2bdf38
1, 17640, 17640, 1596, 6384, 0xdf1c99a2
0, 12, 12, 1, 535680, 0xb3af3ac4
0, 35640, 35640, 0, 535680, 0xb3af3ac4
1, 19236, 19236, 1596, 6384, 0xca9591ad
0, 13, 13, 1, 535680, 0x07a52577
0, 38610, 38610, 0, 535680, 0x07a52577
1, 20832, 20832, 1596, 6384, 0x6f0d9c3d
0, 14, 14, 1, 535680, 0x78407368
0, 41580, 41580, 0, 535680, 0x78407368
1, 22428, 22428, 1596, 6384, 0xfacbbaee
0, 15, 15, 1, 535680, 0xd2a9efc3
0, 44550, 44550, 0, 535680, 0xd2a9efc3
1, 24024, 24024, 1624, 6496, 0x927fb136
0, 16, 16, 1, 535680, 0x36df2f29
0, 47520, 47520, 0, 535680, 0x36df2f29
1, 25648, 25648, 1596, 6384, 0x9d4f2572
0, 17, 17, 1, 535680, 0x9821d8f7
0, 50490, 50490, 0, 535680, 0x9821d8f7
1, 27244, 27244, 1596, 6384, 0x2a3c6d08
0, 18, 18, 1, 535680, 0xf64321aa
0, 53460, 53460, 0, 535680, 0xf64321aa
1, 28840, 28840, 1596, 6384, 0x4282b1e0
0, 19, 19, 1, 535680, 0x53e4d9aa
0, 56430, 56430, 0, 535680, 0x53e4d9aa
1, 30436, 30436, 1596, 6384, 0xc4a77b9f
0, 20, 20, 1, 535680, 0xdbd6f853
0, 59400, 59400, 0, 535680, 0xdbd6f853
1, 32032, 32032, 1624, 6496, 0x2af6a14f
0, 21, 21, 1, 535680, 0x5d40cf8b
0, 62370, 62370, 0, 535680, 0x5d40cf8b
1, 33656, 33656, 1596, 6384, 0x4d734169
0, 22, 22, 1, 535680, 0xe624af9d
0, 65340, 65340, 0, 535680, 0xe624af9d
1, 35252, 35252, 1596, 6384, 0xb91b5865
0, 23, 23, 1, 535680, 0xd9dbb4cd
0, 68310, 68310, 0, 535680, 0xd9dbb4cd
1, 36848, 36848, 1596, 6384, 0x9dce2417
0, 24, 24, 1, 535680, 0xf14e72ec
0, 71280, 71280, 0, 535680, 0xf14e72ec
1, 38444, 38444, 1596, 6384, 0xb7c4e1ce
0, 25, 25, 1, 535680, 0xb35c18f6
0, 74250, 74250, 0, 535680, 0xb35c18f6
1, 40040, 40040, 1624, 6496, 0xef0dc07a
0, 26, 26, 1, 535680, 0xc96d7757
0, 77220, 77220, 0, 535680, 0xc96d7757
1, 41664, 41664, 1596, 6384, 0x4ad21d10
0, 27, 27, 1, 535680, 0xdfb937df
0, 80190, 80190, 0, 535680, 0xdfb937df
1, 43260, 43260, 1596, 6384, 0xcfe14682
0, 28, 28, 1, 535680, 0x40cd71d7
0, 83160, 83160, 0, 535680, 0x40cd71d7
1, 44856, 44856, 1596, 6384, 0x07be48eb
0, 29, 29, 1, 535680, 0x15e176d6
0, 86130, 86130, 0, 535680, 0x15e176d6
1, 46452, 46452, 1596, 6384, 0x09de3498
0, 30, 30, 1, 535680, 0x7f891b24
0, 89100, 89100, 0, 535680, 0x7f891b24
1, 48048, 48048, 1624, 6496, 0xab2e9686
0, 31, 31, 1, 535680, 0xb87a8c32
0, 92070, 92070, 0, 535680, 0xb87a8c32
1, 49672, 49672, 1596, 6384, 0x3aba3ccc
0, 32, 32, 1, 535680, 0x0c01541f
0, 95040, 95040, 0, 535680, 0x0c01541f
1, 51268, 51268, 1596, 6384, 0x0a905ec3
0, 33, 33, 1, 535680, 0x9eee99b3
0, 98010, 98010, 0, 535680, 0x9eee99b3
1, 52864, 52864, 1596, 6384, 0x76a93ce4
0, 34, 34, 1, 535680, 0xd65eb689
0, 100980, 100980, 0, 535680, 0xd65eb689
1, 54460, 54460, 1596, 6384, 0xa99063a4
0, 35, 35, 1, 535680, 0x6e733cfa
0, 103950, 103950, 0, 535680, 0x6e733cfa
1, 56056, 56056, 1624, 6496, 0xc16bb88d
0, 36, 36, 1, 535680, 0xac536670
0, 106920, 106920, 0, 535680, 0xac536670
1, 57680, 57680, 1596, 6384, 0x650379bf
0, 37, 37, 1, 535680, 0x002275b8
0, 109890, 109890, 0, 535680, 0x002275b8
1, 59276, 59276, 1596, 6384, 0x4e0749fe
0, 38, 38, 1, 535680, 0x6a5385cb
0, 112860, 112860, 0, 535680, 0x6a5385cb
1, 60872, 60872, 1596, 6384, 0x778e8d12
0, 39, 39, 1, 535680, 0xd129ade3
0, 115830, 115830, 0, 535680, 0xd129ade3
1, 62468, 62468, 1596, 6384, 0x9fa8c494
0, 40, 40, 1, 535680, 0x32cab5d7
0, 118800, 118800, 0, 535680, 0x32cab5d7
1, 64064, 64064, 1624, 6496, 0x61d5bead
0, 41, 41, 1, 535680, 0x08be1c8f
0, 121770, 121770, 0, 535680, 0x08be1c8f
1, 65688, 65688, 1596, 6384, 0x4da9bc3c
0, 42, 42, 1, 535680, 0x59e1fba0
0, 124740, 124740, 0, 535680, 0x59e1fba0
1, 67284, 67284, 1596, 6384, 0xa72b6f93
0, 43, 43, 1, 535680, 0x138aee3a
0, 127710, 127710, 0, 535680, 0x138aee3a
1, 68880, 68880, 1596, 6384, 0x811f5f77
0, 44, 44, 1, 535680, 0x4cfbcd5e
0, 130680, 130680, 0, 535680, 0x4cfbcd5e
1, 70476, 70476, 1596, 6384, 0x83ea5e3d
0, 45, 45, 1, 535680, 0xf6cf0fb4
0, 133650, 133650, 0, 535680, 0xf6cf0fb4
1, 72072, 72072, 1624, 6496, 0x78bab460
0, 46, 46, 1, 535680, 0xb13a06de
0, 136620, 136620, 0, 535680, 0xb13a06de
1, 73696, 73696, 1596, 6384, 0xc9a07432
0, 47, 47, 1, 535680, 0x59176f00
0, 139590, 139590, 0, 535680, 0x59176f00
1, 75292, 75292, 1596, 6384, 0x4b4f2a34
0, 48, 48, 1, 535680, 0xf84b4ca3
0, 142560, 142560, 0, 535680, 0xf84b4ca3
1, 76888, 76888, 1596, 6384, 0x4d707a53
0, 49, 49, 1, 535680, 0x7fd09f73
0, 145530, 145530, 0, 535680, 0x7fd09f73
1, 78484, 78484, 1596, 6384, 0x703efb60
0, 50, 50, 1, 535680, 0x3be383b8
0, 148500, 148500, 0, 535680, 0x3be383b8
1, 80080, 80080, 1624, 6496, 0x319a77bb
0, 51, 51, 1, 535680, 0xa7118e51
0, 151470, 151470, 0, 535680, 0xa7118e51
1, 81704, 81704, 1596, 6384, 0xbdfd82ec
0, 52, 52, 1, 535680, 0xbd83120c
0, 154440, 154440, 0, 535680, 0xbd83120c
1, 83300, 83300, 1596, 6384, 0x413c3503
0, 53, 53, 1, 535680, 0x3bc9d256
0, 157410, 157410, 0, 535680, 0x3bc9d256
1, 84896, 84896, 1596, 6384, 0xe6e666b3
0, 54, 54, 1, 535680, 0xb6c87f87
0, 160380, 160380, 0, 535680, 0xb6c87f87
1, 86492, 86492, 1596, 6384, 0xa09c7342
0, 55, 55, 1, 535680, 0xe80d110a
0, 163350, 163350, 0, 535680, 0xe80d110a
1, 88088, 88088, 1624, 6496, 0x60cba846
0, 56, 56, 1, 535680, 0xb3a83362
0, 166320, 166320, 0, 535680, 0xb3a83362
1, 89712, 89712, 1596, 6384, 0x0ba34308
0, 57, 57, 1, 535680, 0xfb39eb52
0, 169290, 169290, 0, 535680, 0xfb39eb52
1, 91308, 91308, 1596, 6384, 0xdc3a65f0
0, 58, 58, 1, 535680, 0xbf6e1220
0, 172260, 172260, 0, 535680, 0xbf6e1220
1, 92904, 92904, 1596, 6384, 0x1ebf9dc4
0, 59, 59, 1, 535680, 0x9ecdfbae
0, 175230, 175230, 0, 535680, 0x9ecdfbae
1, 94500, 94500, 1596, 6384, 0xbbcb1449
0, 60, 60, 1, 535680, 0x069a65f5
0, 178200, 178200, 0, 535680, 0x069a65f5
1, 96096, 96096, 1624, 6496, 0x926574eb
0, 61, 61, 1, 535680, 0x206e372c
0, 181170, 181170, 0, 535680, 0x206e372c
1, 97720, 97720, 1596, 6384, 0xb4da92f1
0, 62, 62, 1, 535680, 0x58c83dd4
0, 184140, 184140, 0, 535680, 0x58c83dd4
1, 99316, 99316, 1596, 6384, 0xdbbd21e0
0, 63, 63, 1, 535680, 0xc3562b03
0, 187110, 187110, 0, 535680, 0xc3562b03
1, 100912, 100912, 1596, 6384, 0x08510eff
0, 64, 64, 1, 535680, 0xd1ed85a0
0, 190080, 190080, 0, 535680, 0xd1ed85a0
1, 102508, 102508, 1596, 6384, 0x9534b7ca
0, 65, 65, 1, 535680, 0xb6205f4b
0, 193050, 193050, 0, 535680, 0xb6205f4b
1, 104104, 104104, 1624, 6496, 0x50a5ed30
0, 66, 66, 1, 535680, 0xaedf8bfa
0, 196020, 196020, 0, 535680, 0xaedf8bfa
1, 105728, 105728, 1596, 6384, 0xf5ac2f7c
0, 67, 67, 1, 535680, 0xa48d5dea
0, 198990, 198990, 0, 535680, 0xa48d5dea
1, 107324, 107324, 1596, 6384, 0x4fe1fa55
0, 68, 68, 1, 535680, 0xff82e7c1
0, 201960, 201960, 0, 535680, 0xff82e7c1
1, 108920, 108920, 1596, 6384, 0xd61c4c05
0, 69, 69, 1, 535680, 0xc9560222
0, 204930, 204930, 0, 535680, 0xc9560222
1, 110516, 110516, 1596, 6384, 0x56d11b45
0, 70, 70, 1, 535680, 0x0fafa549
0, 207900, 207900, 0, 535680, 0x0fafa549
1, 112112, 112112, 1624, 6496, 0x3906084b
0, 71, 71, 1, 535680, 0x8d556ccb
0, 210870, 210870, 0, 535680, 0x8d556ccb
1, 113736, 113736, 1596, 6384, 0x1ef31fed
0, 72, 72, 1, 535680, 0x802aac1f
0, 213840, 213840, 0, 535680, 0x802aac1f
1, 115332, 115332, 1596, 6384, 0x58ed82f5
0, 73, 73, 1, 535680, 0x7d0fa168
0, 216810, 216810, 0, 535680, 0x7d0fa168
1, 116928, 116928, 1596, 6384, 0xb31ccd1f
0, 74, 74, 1, 535680, 0x1a9255c9
0, 219780, 219780, 0, 535680, 0x1a9255c9
1, 118524, 118524, 1596, 6384, 0xfb648285
0, 75, 75, 1, 535680, 0xb4ec7e35
0, 222750, 222750, 0, 535680, 0xb4ec7e35
1, 120120, 120120, 1624, 6496, 0xfae2950b
0, 76, 76, 1, 535680, 0x48fac072
0, 225720, 225720, 0, 535680, 0x48fac072
1, 121744, 121744, 1596, 6384, 0xe28c8357
0, 77, 77, 1, 535680, 0x1e260135
0, 228690, 228690, 0, 535680, 0x1e260135
1, 123340, 123340, 1596, 6384, 0xda718e60
0, 78, 78, 1, 535680, 0xce4d5079
0, 231660, 231660, 0, 535680, 0xce4d5079
1, 124936, 124936, 1596, 6384, 0x27516999
0, 79, 79, 1, 535680, 0x13e5e4ed
0, 234630, 234630, 0, 535680, 0x13e5e4ed
1, 126532, 126532, 1596, 6384, 0x0ba07921
0, 80, 80, 1, 535680, 0x592305ec
0, 237600, 237600, 0, 535680, 0x592305ec
1, 128128, 128128, 1624, 6496, 0xcfbecfab
0, 81, 81, 1, 535680, 0x9e227508
0, 240570, 240570, 0, 535680, 0x9e227508
1, 129752, 129752, 1596, 6384, 0xae4cedcd
0, 82, 82, 1, 535680, 0x1d37e5ea
0, 243540, 243540, 0, 535680, 0x1d37e5ea
1, 131348, 131348, 1596, 6384, 0x917b4707
0, 83, 83, 1, 535680, 0x7eae7692
0, 246510, 246510, 0, 535680, 0x7eae7692
1, 132944, 132944, 1596, 6384, 0x8671b28e
0, 84, 84, 1, 535680, 0xf452e4b9
0, 249480, 249480, 0, 535680, 0xf452e4b9
1, 134540, 134540, 1596, 6384, 0x9a1238fa
0, 85, 85, 1, 535680, 0x1460e7e9
0, 252450, 252450, 0, 535680, 0x1460e7e9
1, 136136, 136136, 1624, 6496, 0x23b8f8ca
0, 86, 86, 1, 535680, 0xc6d8a638
0, 255420, 255420, 0, 535680, 0xc6d8a638
1, 137760, 137760, 1596, 6384, 0x3903bcd6
0, 87, 87, 1, 535680, 0x854f5fb0
0, 258390, 258390, 0, 535680, 0x854f5fb0
1, 139356, 139356, 1596, 6384, 0x0532b267
0, 88, 88, 1, 535680, 0x854f5fb0
0, 261360, 261360, 0, 535680, 0x854f5fb0
1, 140952, 140952, 1596, 6384, 0xde931220
0, 89, 89, 1, 535680, 0x70a02d87
0, 264330, 264330, 0, 535680, 0x70a02d87
1, 142548, 142548, 1596, 6384, 0x4ed70a80
0, 90, 90, 1, 535680, 0x9a4ad464
0, 91, 91, 1, 535680, 0x9a4ad464
0, 267300, 267300, 0, 535680, 0x9a4ad464
0, 270270, 270270, 0, 535680, 0x9a4ad464
1, 144144, 144144, 1624, 6496, 0x4a52d5a1
0, 92, 92, 1, 535680, 0x9a4ad464
0, 273240, 273240, 0, 535680, 0x9a4ad464
1, 145768, 145768, 1596, 6384, 0xc1be5760
0, 93, 93, 1, 535680, 0x9a4ad464
0, 276210, 276210, 0, 535680, 0x9a4ad464
1, 147364, 147364, 1596, 6384, 0x790d69ba
0, 94, 94, 1, 535680, 0x9a4ad464
0, 279180, 279180, 0, 535680, 0x9a4ad464
1, 148960, 148960, 1596, 6384, 0x9d73e6cf
0, 95, 95, 1, 535680, 0x9a4ad464
0, 282150, 282150, 0, 535680, 0x9a4ad464
1, 150556, 150556, 1568, 6272, 0xbc0fc725
#tb 0: 1/15
#tb 0: 1/90000
#tb 1: 1/22050
0, 0, 0, 1, 115200, 0x375ec573
0, 0, 0, 0, 115200, 0x375ec573
1, 0, 0, 1484, 5936, 0x00000000
0, 1, 1, 1, 115200, 0x375ec573
0, 6000, 6000, 0, 115200, 0x375ec573
1, 1484, 1484, 1456, 5824, 0x00000000
0, 2, 2, 1, 115200, 0x375ec573
0, 12000, 12000, 0, 115200, 0x375ec573
1, 2940, 2940, 1484, 5936, 0x00000000
0, 3, 3, 1, 115200, 0x375ec573
0, 18000, 18000, 0, 115200, 0x375ec573
1, 4424, 4424, 1456, 5824, 0x00000000
0, 4, 4, 1, 115200, 0x375ec573
0, 24000, 24000, 0, 115200, 0x375ec573
1, 5880, 5880, 1484, 5936, 0x00000000
0, 5, 5, 1, 115200, 0x375ec573
0, 30000, 30000, 0, 115200, 0x375ec573
1, 7364, 7364, 1456, 5824, 0x00000000
0, 6, 6, 1, 115200, 0x375ec573
0, 36000, 36000, 0, 115200, 0x375ec573
1, 8820, 8820, 1484, 5936, 0x00000000
0, 7, 7, 1, 115200, 0x375ec573
0, 42000, 42000, 0, 115200, 0x375ec573
1, 10304, 10304, 1456, 5824, 0x0f06f5bb
0, 8, 8, 1, 115200, 0x0b4d31bf
0, 48000, 48000, 0, 115200, 0x0b4d31bf
1, 11760, 11760, 1484, 5936, 0xb0dbfc46
0, 9, 9, 1, 115200, 0xdd724598
0, 54000, 54000, 0, 115200, 0xdd724598
1, 13244, 13244, 1456, 5824, 0x9daa9f9c
0, 10, 10, 1, 115200, 0xc3077e75
0, 60000, 60000, 0, 115200, 0xc3077e75
1, 14700, 14700, 1484, 5936, 0x61400d2f
0, 11, 11, 1, 115200, 0xbf70778a
0, 66000, 66000, 0, 115200, 0xbf70778a
1, 16184, 16184, 1456, 5824, 0x34a5b0e3
0, 12, 12, 1, 115200, 0x117eb766
0, 72000, 72000, 0, 115200, 0x117eb766
1, 17640, 17640, 1484, 5936, 0x6e546f72
0, 13, 13, 1, 115200, 0x4617fbad
0, 78000, 78000, 0, 115200, 0x4617fbad
1, 19124, 19124, 1456, 5824, 0x4f093b35
0, 14, 14, 1, 115200, 0x5f5b02d2
0, 84000, 84000, 0, 115200, 0x5f5b02d2
1, 20580, 20580, 1484, 5936, 0x95b5b599
0, 15, 15, 1, 115200, 0x2a9c5325
0, 90000, 90000, 0, 115200, 0x2a9c5325
1, 22064, 22064, 1456, 5824, 0x75e15e60
0, 16, 16, 1, 115200, 0x14a89e2a
0, 96000, 96000, 0, 115200, 0x14a89e2a
1, 23520, 23520, 1484, 5936, 0xd1077d39
0, 17, 17, 1, 115200, 0xe69aa994
0, 102000, 102000, 0, 115200, 0xe69aa994
1, 25004, 25004, 1456, 5824, 0x956e21ca
0, 18, 18, 1, 115200, 0xfbacf589
0, 108000, 108000, 0, 115200, 0xfbacf589
1, 26460, 26460, 1484, 5936, 0x33bac234
0, 19, 19, 1, 115200, 0x1d714c6e
0, 114000, 114000, 0, 115200, 0x1d714c6e
1, 27944, 27944, 1456, 5824, 0x5df37824
0, 20, 20, 1, 115200, 0x6eff66cb
0, 120000, 120000, 0, 115200, 0x6eff66cb
1, 29400, 29400, 1484, 5936, 0xc174af24
0, 21, 21, 1, 115200, 0xee21c1cb
0, 126000, 126000, 0, 115200, 0xee21c1cb
1, 30884, 30884, 1456, 5824, 0xe5dc2159
0, 22, 22, 1, 115200, 0xce714ada
0, 132000, 132000, 0, 115200, 0xce714ada
1, 32340, 32340, 1484, 5936, 0x63ffc8b1
0, 23, 23, 1, 115200, 0xf89d56c3
0, 138000, 138000, 0, 115200, 0xf89d56c3
1, 33824, 33824, 1456, 5824, 0xefe4c365
0, 24, 24, 1, 115200, 0x65fd5e60
0, 144000, 144000, 0, 115200, 0x65fd5e60
1, 35280, 35280, 1484, 5936, 0x2174304d
0, 25, 25, 1, 115200, 0x0c256424
0, 150000, 150000, 0, 115200, 0x0c256424
#tb 0: 12/553
#tb 0: 185/11111
#tb 1: 1/11111
0, 0, 0, 1, 192000, 0x00000000
1, 0, 0, 740, 1480, 0x00000000
0, 3, 3, 1, 192000, 0x01a6cf45
0, 4, 4, 1, 192000, 0x01a6cf45
1, 740, 740, 740, 1480, 0x20a92bd4
0, 6, 6, 1, 192000, 0xd07d57e9
0, 8, 8, 1, 192000, 0xd07d57e9
1, 1480, 1480, 925, 1850, 0xa9e48a74
0, 13, 13, 1, 192000, 0x3cb1dff5
1, 2405, 2405, 740, 1480, 0x23ecd018
0, 10, 10, 1, 192000, 0x3cb1dff5
0, 13, 13, 1, 192000, 0xd1aaa8fb
0, 17, 17, 1, 192000, 0xd1aaa8fb
1, 3145, 3145, 740, 1480, 0x206bb915
0, 16, 16, 1, 192000, 0x75f526cd
0, 21, 21, 1, 192000, 0x75f526cd
1, 3885, 3885, 925, 1850, 0xb0e10e75
0, 26, 26, 1, 192000, 0x0f673577
1, 4810, 4810, 740, 1480, 0x8d9baedd
0, 20, 20, 1, 192000, 0x0f673577
0, 23, 23, 1, 192000, 0x897b6781
0, 30, 30, 1, 192000, 0x897b6781
1, 5550, 5550, 740, 1480, 0xb802aae1
0, 26, 26, 1, 192000, 0x81e6b7f7
0, 34, 34, 1, 192000, 0x81e6b7f7
1, 6290, 6290, 740, 1480, 0xecd7b5cc
0, 29, 29, 1, 192000, 0x1f45ce61
0, 38, 38, 1, 192000, 0x1f45ce61
1, 7030, 7030, 925, 1850, 0x16861355
0, 43, 43, 1, 192000, 0x5a0772a6
1, 7955, 7955, 740, 1480, 0xa51690bd
0, 33, 33, 1, 192000, 0x5a0772a6
0, 36, 36, 1, 192000, 0xf78732b3
0, 47, 47, 1, 192000, 0xf78732b3
1, 8695, 8695, 740, 1480, 0xdd0b90d1
0, 39, 39, 1, 192000, 0x8427f9e5
0, 51, 51, 1, 192000, 0x8427f9e5
1, 9435, 9435, 925, 1850, 0x3ce6e333
0, 56, 56, 1, 192000, 0x40473f11
1, 10360, 10360, 740, 1480, 0xf8ce8ea3
0, 43, 43, 1, 192000, 0x40473f11
0, 46, 46, 1, 192000, 0x173ceebe
0, 60, 60, 1, 192000, 0x173ceebe
1, 11100, 11100, 740, 1480, 0xda4597af
0, 49, 49, 1, 192000, 0x136b9516
0, 64, 64, 1, 192000, 0x136b9516
1, 11840, 11840, 740, 1480, 0x918f7cb3
0, 52, 52, 1, 192000, 0x138d11ae
0, 68, 68, 1, 192000, 0x138d11ae
1, 12580, 12580, 925, 1850, 0xca6edb15
0, 56, 56, 1, 192000, 0x063dbff3
0, 73, 73, 1, 192000, 0x063dbff3
1, 13505, 13505, 740, 1480, 0xba279597
0, 59, 59, 1, 192000, 0x5280852f
0, 77, 77, 1, 192000, 0x5280852f
1, 14245, 14245, 740, 1480, 0xc5a38a9e
0, 62, 62, 1, 192000, 0x99943a8f
0, 81, 81, 1, 192000, 0x99943a8f
1, 14985, 14985, 925, 1850, 0x8147eef5
0, 86, 86, 1, 192000, 0x0330a728
1, 15910, 15910, 740, 1480, 0xce2c7cb5
0, 66, 66, 1, 192000, 0x0330a728
0, 69, 69, 1, 192000, 0x5d35467d
0, 90, 90, 1, 192000, 0x5d35467d
1, 16650, 16650, 740, 1480, 0x4282819f
0, 72, 72, 1, 192000, 0xfd436343
0, 94, 94, 1, 192000, 0xfd436343
1, 17390, 17390, 740, 1480, 0xbdbb8da6
0, 75, 75, 1, 192000, 0xc323fcfe
0, 98, 98, 1, 192000, 0xc323fcfe
1, 18130, 18130, 925, 1850, 0xdbbeea10
0, 79, 79, 1, 192000, 0x2a1530a0
0, 103, 103, 1, 192000, 0x2a1530a0
1, 19055, 19055, 740, 1480, 0xbe6a77c2
0, 82, 82, 1, 192000, 0xbd43bb60
0, 107, 107, 1, 192000, 0xbd43bb60
1, 19795, 19795, 740, 1480, 0xa85c75b2
0, 85, 85, 1, 192000, 0xa47f5eab
0, 111, 111, 1, 192000, 0xa47f5eab
1, 20535, 20535, 925, 1850, 0xa45bde21
0, 89, 89, 1, 192000, 0xff17f5f7
0, 116, 116, 1, 192000, 0xff17f5f7
1, 21460, 21460, 740, 1480, 0x84aa7895
0, 92, 92, 1, 192000, 0xb4140b55
0, 120, 120, 1, 192000, 0xb4140b55
1, 22200, 22200, 740, 1480, 0x147f7d9f
0, 95, 95, 1, 192000, 0xb8782cc4
0, 124, 124, 1, 192000, 0xb8782cc4
1, 22940, 22940, 740, 1480, 0xc8e77b85
0, 98, 98, 1, 192000, 0x92975b8b
0, 128, 128, 1, 192000, 0x92975b8b
1, 23680, 23680, 925, 1850, 0x10d4d81b
0, 102, 102, 1, 192000, 0xf42a64d6
0, 133, 133, 1, 192000, 0xf42a64d6
1, 24605, 24605, 740, 1480, 0xb4ae8bb1
0, 105, 105, 1, 192000, 0x2cc7077d
0, 137, 137, 1, 192000, 0x2cc7077d
1, 25345, 25345, 740, 1480, 0x3ef782a5
0, 108, 108, 1, 192000, 0x00080cc8
0, 141, 141, 1, 192000, 0x00080cc8
1, 26085, 26085, 925, 1850, 0xdeebda14
0, 112, 112, 1, 192000, 0x584b48f3
0, 146, 146, 1, 192000, 0x584b48f3
1, 27010, 27010, 740, 1480, 0x4c7e7bbb
0, 115, 115, 1, 192000, 0xd68f57da
0, 150, 150, 1, 192000, 0xd68f57da
1, 27750, 27750, 740, 1480, 0x0e0e9198
0, 118, 118, 1, 192000, 0x60158422
0, 154, 154, 1, 192000, 0x60158422
1, 28490, 28490, 740, 1480, 0x5c1f819f
0, 121, 121, 1, 192000, 0xd7fb89e6
0, 158, 158, 1, 192000, 0xd7fb89e6
1, 29230, 29230, 925, 1850, 0x0e4cf6ff
0, 125, 125, 1, 192000, 0x97f1c76a
0, 163, 163, 1, 192000, 0x97f1c76a
1, 30155, 30155, 740, 1480, 0x374388a7
0, 128, 128, 1, 192000, 0x46c4bb9e
0, 167, 167, 1, 192000, 0x46c4bb9e
1, 30895, 30895, 740, 1480, 0xed729389
0, 131, 131, 1, 192000, 0xd32f9b66
0, 171, 171, 1, 192000, 0xd32f9b66
1, 31635, 31635, 925, 1850, 0xe0f1e43f
0, 135, 135, 1, 192000, 0x74f43886
0, 176, 176, 1, 192000, 0x74f43886
1, 32560, 32560, 740, 1480, 0x3b27839a
0, 138, 138, 1, 192000, 0x3c4e47df
0, 180, 180, 1, 192000, 0x3c4e47df
<