Commit 55c6e599 authored by Vittorio Giovara's avatar Vittorio Giovara

fate: add SGI tests

parent d613091f
...@@ -62,6 +62,38 @@ fate-pngparser: CMD = framecrc -f image2pipe -i $(TARGET_SAMPLES)/png1/libav_4x_ ...@@ -62,6 +62,38 @@ fate-pngparser: CMD = framecrc -f image2pipe -i $(TARGET_SAMPLES)/png1/libav_4x_
FATE_SAMPLES_AVCONV-$(call DEMDEC, IMAGE2, PTX) += fate-ptx FATE_SAMPLES_AVCONV-$(call DEMDEC, IMAGE2, PTX) += fate-ptx
fate-ptx: CMD = framecrc -i $(TARGET_SAMPLES)/ptx/_113kw_pic.ptx -pix_fmt rgb24 fate-ptx: CMD = framecrc -i $(TARGET_SAMPLES)/ptx/_113kw_pic.ptx -pix_fmt rgb24
FATE_SGI += fate-sgi-gray
fate-sgi-gray: CMD = framecrc -i $(TARGET_SAMPLES)/sgi/vulap_gray.sgi -pix_fmt gray
FATE_SGI += fate-sgi-gray16
fate-sgi-gray16: CMD = framecrc -i $(TARGET_SAMPLES)/sgi/vulap_gray16.sgi -pix_fmt gray16
FATE_SGI += fate-sgi-rgb24
fate-sgi-rgb24: CMD = framecrc -i $(TARGET_SAMPLES)/sgi/vulap_rgb24.sgi -pix_fmt rgb24
FATE_SGI += fate-sgi-rgb24-rle
fate-sgi-rgb24-rle: CMD = framecrc -i $(TARGET_SAMPLES)/sgi/uvmap_rgb24_rle.sgi -pix_fmt rgb24
FATE_SGI += fate-sgi-rgb48
fate-sgi-rgb48: CMD = framecrc -i $(TARGET_SAMPLES)/sgi/vulap_rgb48.sgi -pix_fmt rgb48be
FATE_SGI += fate-sgi-rgb48-rle
fate-sgi-rgb48-rle: CMD = framecrc -i $(TARGET_SAMPLES)/sgi/uvmap_rgb48_rle.sgi -pix_fmt rgb48be
FATE_SGI += fate-sgi-rgba
fate-sgi-rgba: CMD = framecrc -i $(TARGET_SAMPLES)/sgi/vulap_rgba.sgi -pix_fmt rgba
FATE_SGI += fate-sgi-rgba64
fate-sgi-rgba64: CMD = framecrc -i $(TARGET_SAMPLES)/sgi/vulap_rgba64.sgi -pix_fmt rgba64be
FATE_SGI += fate-sgi-rgba64-rle
fate-sgi-rgba64-rle: CMD = framecrc -i $(TARGET_SAMPLES)/sgi/maya_rgba64_rle.sgi -pix_fmt rgba64be
FATE_SGI-$(call DEMDEC, IMAGE2, SGI) += $(FATE_SGI)
FATE_SAMPLES_AVCONV += $(FATE_SGI-yes)
fate-sgi: $(FATE_SGI-yes)
FATE_SUNRASTER += fate-sunraster-1bit-raw FATE_SUNRASTER += fate-sunraster-1bit-raw
fate-sunraster-1bit-raw: CMD = framecrc -i $(TARGET_SAMPLES)/sunraster/lena-1bit-raw.sun fate-sunraster-1bit-raw: CMD = framecrc -i $(TARGET_SAMPLES)/sunraster/lena-1bit-raw.sun
......
#tb 0: 1/25
0, 0, 0, 1, 131072, 0xb0702a94
#tb 0: 1/25
0, 0, 0, 1, 262144, 0xecdaf084
#tb 0: 1/25
0, 0, 0, 1, 393216, 0xa9b28fd9
#tb 0: 1/25
0, 0, 0, 1, 393216, 0xe96e1de2
#tb 0: 1/25
0, 0, 0, 1, 786432, 0xee4aa667
#tb 0: 1/25
0, 0, 0, 1, 786432, 0xbc743bc4
#tb 0: 1/25
0, 0, 0, 1, 524288, 0x4ee5adbb
#tb 0: 1/25
0, 0, 0, 1, 1048576, 0xc657e22b
#tb 0: 1/25
0, 0, 0, 1, 614400, 0xb92d409d
Markdown is supported
0% or
You are about to add 0 people to the discussion. Proceed with caution.
Finish editing this message first!
Please register or to comment