Commit 74b961db authored by Anton Khirnov's avatar Anton Khirnov

avconv: replace -vsync cfr code with the fps filter.

Invented timestamps for the h264 tests return to something resembling
sanity.

In the idroq-video-encode test when converting 25 fps -> 30 fps the
fifth frame gets duplicated instead of the sixth.
parent 755cd419
This diff is collapsed.
#tb 0: 1/25
0, 2, 2, 1, 518400, 0xbf168f4e
0, 4, 4, 1, 518400, 0xeda5e54f
0, 6, 6, 1, 518400, 0xef496d43
0, 8, 8, 1, 518400, 0x6b68dad5
0, 10, 10, 1, 518400, 0x9a40a7de
0, 12, 12, 1, 518400, 0x0c21c018
0, 14, 14, 1, 518400, 0x4ac5a846
0, 16, 16, 1, 518400, 0x3a1aa817
0, 18, 18, 1, 518400, 0xcc4eb434
0, 20, 20, 1, 518400, 0x4368a3c2
0, 22, 22, 1, 518400, 0xb923682f
0, 24, 24, 1, 518400, 0xd95460a8
0, 26, 26, 1, 518400, 0x8e8518aa
0, 28, 28, 1, 518400, 0x292a1a80
0, 30, 30, 1, 518400, 0xbada388e
0, 32, 32, 1, 518400, 0xa67f63c9
0, 34, 34, 1, 518400, 0x9fc77e21
0, 36, 36, 1, 518400, 0xe99dc2ac
0, 38, 38, 1, 518400, 0x17d7d080
0, 40, 40, 1, 518400, 0x41760c0b
0, 42, 42, 1, 518400, 0x3c70f34d
0, 44, 44, 1, 518400, 0x0d640285
0, 46, 46, 1, 518400, 0x448893e8
0, 48, 48, 1, 518400, 0x08194490
0, 50, 50, 1, 518400, 0xcf227031
0, 52, 52, 1, 518400, 0x8d94587d
0, 54, 54, 1, 518400, 0x696fca01
0, 56, 56, 1, 518400, 0xe0ab234b
0, 58, 58, 1, 518400, 0x0620153b
0, 59, 59, 1, 518400, 0xb78c146c
0, 0, 0, 1, 518400, 0xbf168f4e
0, 1, 1, 1, 518400, 0xeda5e54f
0, 2, 2, 1, 518400, 0xef496d43
0, 3, 3, 1, 518400, 0x6b68dad5
0, 4, 4, 1, 518400, 0x9a40a7de
0, 5, 5, 1, 518400, 0x0c21c018
0, 6, 6, 1, 518400, 0x4ac5a846
0, 7, 7, 1, 518400, 0x3a1aa817
0, 8, 8, 1, 518400, 0xcc4eb434
0, 9, 9, 1, 518400, 0x4368a3c2
0, 10, 10, 1, 518400, 0xb923682f
0, 11, 11, 1, 518400, 0xd95460a8
0, 12, 12, 1, 518400, 0x8e8518aa
0, 13, 13, 1, 518400, 0x292a1a80
0, 14, 14, 1, 518400, 0xbada388e
0, 15, 15, 1, 518400, 0xa67f63c9
0, 16, 16, 1, 518400, 0x9fc77e21
0, 17, 17, 1, 518400, 0xe99dc2ac
0, 18, 18, 1, 518400, 0x17d7d080
0, 19, 19, 1, 518400, 0x41760c0b
0, 20, 20, 1, 518400, 0x3c70f34d
0, 21, 21, 1, 518400, 0x0d640285
0, 22, 22, 1, 518400, 0x448893e8
0, 23, 23, 1, 518400, 0x08194490
0, 24, 24, 1, 518400, 0xcf227031
0, 25, 25, 1, 518400, 0x8d94587d
0, 26, 26, 1, 518400, 0x696fca01
0, 27, 27, 1, 518400, 0xe0ab234b
0, 28, 28, 1, 518400, 0x0620153b
0, 29, 29, 1, 518400, 0xb78c146c
#tb 0: 1/25
0, 1, 1, 1, 518400, 0xd8b58a23
0, 3, 3, 1, 518400, 0xe53b4aba
0, 4, 4, 1, 518400, 0x6cbca47a
0, 5, 5, 1, 518400, 0xceb51253
0, 6, 6, 1, 518400, 0x60cb3cdd
0, 8, 8, 1, 518400, 0x7b633553
0, 10, 10, 1, 518400, 0x10c012c9
0, 12, 12, 1, 518400, 0xa340ee20
0, 13, 13, 1, 518400, 0x574c22c2
0, 14, 14, 1, 518400, 0xbcdb1bf7
0, 15, 15, 1, 518400, 0x57811e9a
0, 17, 17, 1, 518400, 0xdd4af748
0, 19, 19, 1, 518400, 0xb931a637
0, 21, 21, 1, 518400, 0xcef6ce95
0, 22, 22, 1, 518400, 0xd28c7085
0, 23, 23, 1, 518400, 0xae9daf53
0, 24, 24, 1, 518400, 0xca29d819
0, 26, 26, 1, 518400, 0x3c4bd7eb
0, 28, 28, 1, 518400, 0x912ee227
0, 30, 30, 1, 518400, 0xb67d0e27
0, 31, 31, 1, 518400, 0x8cf7309d
0, 32, 32, 1, 518400, 0x358ad344
0, 33, 33, 1, 518400, 0x4462c642
0, 35, 35, 1, 518400, 0x3bb43428
0, 37, 37, 1, 518400, 0x12d6f8ca
0, 39, 39, 1, 518400, 0x003f13aa
0, 40, 40, 1, 518400, 0x6cd8c432
0, 41, 41, 1, 518400, 0xee5ff01b
0, 43, 43, 1, 518400, 0xba0616ee
0, 44, 44, 1, 518400, 0x37fa7891
0, 0, 0, 1, 518400, 0xd8b58a23
0, 1, 1, 1, 518400, 0xe53b4aba
0, 2, 2, 1, 518400, 0x6cbca47a
0, 3, 3, 1, 518400, 0xceb51253
0, 4, 4, 1, 518400, 0x60cb3cdd
0, 5, 5, 1, 518400, 0x7b633553
0, 6, 6, 1, 518400, 0x10c012c9
0, 7, 7, 1, 518400, 0xa340ee20
0, 8, 8, 1, 518400, 0x574c22c2
0, 9, 9, 1, 518400, 0xbcdb1bf7
0, 10, 10, 1, 518400, 0x57811e9a
0, 11, 11, 1, 518400, 0xdd4af748
0, 12, 12, 1, 518400, 0xb931a637
0, 13, 13, 1, 518400, 0xcef6ce95
0, 14, 14, 1, 518400, 0xd28c7085
0, 15, 15, 1, 518400, 0xae9daf53
0, 16, 16, 1, 518400, 0xca29d819
0, 17, 17, 1, 518400, 0x3c4bd7eb
0, 18, 18, 1, 518400, 0x912ee227
0, 19, 19, 1, 518400, 0xb67d0e27
0, 20, 20, 1, 518400, 0x8cf7309d
0, 21, 21, 1, 518400, 0x358ad344
0, 22, 22, 1, 518400, 0x4462c642
0, 23, 23, 1, 518400, 0x3bb43428
0, 24, 24, 1, 518400, 0x12d6f8ca
0, 25, 25, 1, 518400, 0x003f13aa
0, 26, 26, 1, 518400, 0x6cd8c432
0, 27, 27, 1, 518400, 0xee5ff01b
0, 28, 28, 1, 518400, 0xba0616ee
0, 29, 29, 1, 518400, 0x37fa7891
#tb 0: 1/25
0, 2, 2, 1, 152064, 0x2061bbd0
0, 4, 4, 1, 152064, 0x41adb750
0, 6, 6, 1, 152064, 0x6e889e90
0, 8, 8, 1, 152064, 0xbb5e60f5
0, 10, 10, 1, 152064, 0x5a32eca7
0, 12, 12, 1, 152064, 0x5cb05e88
0, 14, 14, 1, 152064, 0x2fff3e6c
0, 16, 16, 1, 152064, 0xd917c85e
0, 18, 18, 1, 152064, 0x6eac446f
0, 20, 20, 1, 152064, 0x238b24b0
0, 22, 22, 1, 152064, 0x3f3bd44c
0, 24, 24, 1, 152064, 0x73982bc5
0, 26, 26, 1, 152064, 0xf6188a82
0, 28, 28, 1, 152064, 0x818c5b41
0, 30, 30, 1, 152064, 0x000d1012
0, 32, 32, 1, 152064, 0xc4a8750e
0, 34, 34, 1, 152064, 0x1689bb77
0, 36, 36, 1, 152064, 0x8f52f338
0, 38, 38, 1, 152064, 0xbf5ee06b
0, 40, 40, 1, 152064, 0x89508ad7
0, 42, 42, 1, 152064, 0x2b1986a6
0, 44, 44, 1, 152064, 0xe6fd6b0e
0, 46, 46, 1, 152064, 0x883e2e4e
0, 48, 48, 1, 152064, 0xd133db07
0, 50, 50, 1, 152064, 0x39b3bb22
0, 52, 52, 1, 152064, 0x8447410a
0, 54, 54, 1, 152064, 0x9c66c6e5
0, 56, 56, 1, 152064, 0x514de9cc
0, 58, 58, 1, 152064, 0x08d9f1da
0, 60, 60, 1, 152064, 0x8f10f536
0, 62, 62, 1, 152064, 0x57d4b27b
0, 64, 64, 1, 152064, 0x46f56d3c
0, 66, 66, 1, 152064, 0x5d260230
0, 68, 68, 1, 152064, 0x4a72aeac
0, 70, 70, 1, 152064, 0x5cfe187f
0, 72, 72, 1, 152064, 0x08e55cb2
0, 74, 74, 1, 152064, 0x4727f34f
0, 76, 76, 1, 152064, 0xd6a26f1c
0, 78, 78, 1, 152064, 0xcc1fcf9c
0, 80, 80, 1, 152064, 0x3681b775
0, 82, 82, 1, 152064, 0xf580c7d9
0, 84, 84, 1, 152064, 0xaa6747fb
0, 86, 86, 1, 152064, 0x2e22f9f9
0, 88, 88, 1, 152064, 0xb3ee6d81
0, 90, 90, 1, 152064, 0x930b0145
0, 92, 92, 1, 152064, 0xae36af99
0, 94, 94, 1, 152064, 0xeb58fd26
0, 96, 96, 1, 152064, 0xb9004da3
0, 98, 98, 1, 152064, 0x2b25e444
0, 99, 99, 1, 152064, 0xb36927de
0, 0, 0, 1, 152064, 0x2061bbd0
0, 1, 1, 1, 152064, 0x41adb750
0, 2, 2, 1, 152064, 0x6e889e90
0, 3, 3, 1, 152064, 0xbb5e60f5
0, 4, 4, 1, 152064, 0x5a32eca7
0, 5, 5, 1, 152064, 0x5cb05e88
0, 6, 6, 1, 152064, 0x2fff3e6c
0, 7, 7, 1, 152064, 0xd917c85e
0, 8, 8, 1, 152064, 0x6eac446f
0, 9, 9, 1, 152064, 0x238b24b0
0, 10, 10, 1, 152064, 0x3f3bd44c
0, 11, 11, 1, 152064, 0x73982bc5
0, 12, 12, 1, 152064, 0xf6188a82
0, 13, 13, 1, 152064, 0x818c5b41
0, 14, 14, 1, 152064, 0x000d1012
0, 15, 15, 1, 152064, 0xc4a8750e
0, 16, 16, 1, 152064, 0x1689bb77
0, 17, 17, 1, 152064, 0x8f52f338
0, 18, 18, 1, 152064, 0xbf5ee06b
0, 19, 19, 1, 152064, 0x89508ad7
0, 20, 20, 1, 152064, 0x2b1986a6
0, 21, 21, 1, 152064, 0xe6fd6b0e
0, 22, 22, 1, 152064, 0x883e2e4e
0, 23, 23, 1, 152064, 0xd133db07
0, 24, 24, 1, 152064, 0x39b3bb22
0, 25, 25, 1, 152064, 0x8447410a
0, 26, 26, 1, 152064, 0x9c66c6e5
0, 27, 27, 1, 152064, 0x514de9cc
0, 28, 28, 1, 152064, 0x08d9f1da
0, 29, 29, 1, 152064, 0x8f10f536
0, 30, 30, 1, 152064, 0x57d4b27b
0, 31, 31, 1, 152064, 0x46f56d3c
0, 32, 32, 1, 152064, 0x5d260230
0, 33, 33, 1, 152064, 0x4a72aeac
0, 34, 34, 1, 152064, 0x5cfe187f
0, 35, 35, 1, 152064, 0x08e55cb2
0, 36, 36, 1, 152064, 0x4727f34f
0, 37, 37, 1, 152064, 0xd6a26f1c
0, 38, 38, 1, 152064, 0xcc1fcf9c
0, 39, 39, 1, 152064, 0x3681b775
0, 40, 40, 1, 152064, 0xf580c7d9
0, 41, 41, 1, 152064, 0xaa6747fb
0, 42, 42, 1, 152064, 0x2e22f9f9
0, 43, 43, 1, 152064, 0xb3ee6d81
0, 44, 44, 1, 152064, 0x930b0145
0, 45, 45, 1, 152064, 0xae36af99
0, 46, 46, 1, 152064, 0xeb58fd26
0, 47, 47, 1, 152064, 0xb9004da3
0, 48, 48, 1, 152064, 0x2b25e444
0, 49, 49, 1, 152064, 0xb36927de
#tb 0: 1/25
0, 2, 2, 1, 518400, 0x47bd73fa
0, 4, 4, 1, 518400, 0xfe3ea7cc
0, 6, 6, 1, 518400, 0x9bc549ae
0, 8, 8, 1, 518400, 0x7bb7f0a1
0, 10, 10, 1, 518400, 0x328903d4
0, 12, 12, 1, 518400, 0x96ab366b
0, 14, 14, 1, 518400, 0xa923eed3
0, 16, 16, 1, 518400, 0x162b08f6
0, 18, 18, 1, 518400, 0xe711bd8b
0, 20, 20, 1, 518400, 0x55e2d4ed
0, 22, 22, 1, 518400, 0x7dd3107b
0, 24, 24, 1, 518400, 0x0ed20bcf
0, 26, 26, 1, 518400, 0x352f5743
0, 28, 28, 1, 518400, 0x0a3aeb5e
0, 30, 30, 1, 518400, 0xc458eda3
0, 32, 32, 1, 518400, 0xe8d5fec5
0, 34, 34, 1, 518400, 0x18fc6c37
0, 36, 36, 1, 518400, 0x448add76
0, 38, 38, 1, 518400, 0x8741ead7
0, 40, 40, 1, 518400, 0x7008a751
0, 42, 42, 1, 518400, 0x4ca0633d
0, 44, 44, 1, 518400, 0x021ab800
0, 46, 46, 1, 518400, 0xfb91ba57
0, 48, 48, 1, 518400, 0x90e71dd0
0, 50, 50, 1, 518400, 0xac859de5
0, 52, 52, 1, 518400, 0xce9790bd
0, 54, 54, 1, 518400, 0x010ade8b
0, 56, 56, 1, 518400, 0xd0b3a399
0, 58, 58, 1, 518400, 0x6cafcff3
0, 60, 60, 1, 518400, 0xc32284c0
0, 62, 62, 1, 518400, 0x1af8f73e
0, 64, 64, 1, 518400, 0x3babd71e
0, 65, 65, 1, 518400, 0xd77cb86b
0, 0, 0, 1, 518400, 0x47bd73fa
0, 1, 1, 1, 518400, 0xfe3ea7cc
0, 2, 2, 1, 518400, 0x9bc549ae
0, 3, 3, 1, 518400, 0x7bb7f0a1
0, 4, 4, 1, 518400, 0x328903d4
0, 5, 5, 1, 518400, 0x96ab366b
0, 6, 6, 1, 518400, 0xa923eed3
0, 7, 7, 1, 518400, 0x162b08f6
0, 8, 8, 1, 518400, 0xe711bd8b
0, 9, 9, 1, 518400, 0x55e2d4ed
0, 10, 10, 1, 518400, 0x7dd3107b
0, 11, 11, 1, 518400, 0x0ed20bcf
0, 12, 12, 1, 518400, 0x352f5743
0, 13, 13, 1, 518400, 0x0a3aeb5e
0, 14, 14, 1, 518400, 0xc458eda3
0, 15, 15, 1, 518400, 0xe8d5fec5
0, 16, 16, 1, 518400, 0x18fc6c37
0, 17, 17, 1, 518400, 0x448add76
0, 18, 18, 1, 518400, 0x8741ead7
0, 19, 19, 1, 518400, 0x7008a751
0, 20, 20, 1, 518400, 0x4ca0633d
0, 21, 21, 1, 518400, 0x021ab800
0, 22, 22, 1, 518400, 0xfb91ba57
0, 23, 23, 1, 518400, 0x90e71dd0
0, 24, 24, 1, 518400, 0xac859de5
0, 25, 25, 1, 518400, 0xce9790bd
0, 26, 26, 1, 518400, 0x010ade8b
0, 27, 27, 1, 518400, 0xd0b3a399
0, 28, 28, 1, 518400, 0x6cafcff3
0, 29, 29, 1, 518400, 0xc32284c0
0, 30, 30, 1, 518400, 0x1af8f73e
0, 31, 31, 1, 518400, 0x3babd71e
0, 32, 32, 1, 518400, 0xd77cb86b
#tb 0: 1/25
0, 1, 1, 1, 518400, 0x41c2ce17
0, 2, 2, 1, 518400, 0x39f217da
0, 3, 3, 1, 518400, 0x5a108db9
0, 4, 4, 1, 518400, 0x20cb214c
0, 0, 0, 1, 518400, 0x41c2ce17
0, 1, 1, 1, 518400, 0x39f217da
0, 2, 2, 1, 518400, 0x5a108db9
0, 3, 3, 1, 518400, 0x20cb214c
#tb 0: 1/25
0, 1, 1, 1, 622080, 0x004bb93f
0, 2, 2, 1, 622080, 0xe70e193c
0, 3, 3, 1, 622080, 0xd394cf17
0, 4, 4, 1, 622080, 0x9e4cc924
0, 0, 0, 1, 622080, 0x004bb93f
0, 1, 1, 1, 622080, 0xe70e193c
0, 2, 2, 1, 622080, 0xd394cf17
0, 3, 3, 1, 622080, 0x9e4cc924
#tb 0: 1/25
0, 1, 1, 1, 622080, 0xf3f0bf86
0, 2, 2, 1, 622080, 0x6aaf3d42
0, 3, 3, 1, 622080, 0xe53bcd5d
0, 4, 4, 1, 622080, 0x8dabca9d
0, 0, 0, 1, 622080, 0xf3f0bf86
0, 1, 1, 1, 622080, 0x6aaf3d42
0, 2, 2, 1, 622080, 0xe53bcd5d
0, 3, 3, 1, 622080, 0x8dabca9d
#tb 0: 1/25
0, 1, 1, 1, 152064, 0xf772f152
0, 2, 2, 1, 152064, 0xc416d300
0, 4, 4, 1, 152064, 0xc2275c94
0, 6, 6, 1, 152064, 0x1bd35645
0, 7, 7, 1, 152064, 0x60327bf5
0, 9, 9, 1, 152064, 0x7f5541bd
0, 11, 11, 1, 152064, 0x52e5ebad
0, 12, 12, 1, 152064, 0xb8e5c1f3
0, 13, 13, 1, 152064, 0x2b4e3653
0, 14, 14, 1, 152064, 0x9a8f8499
0, 15, 15, 1, 152064, 0x32d4e9fb
0, 17, 17, 1, 152064, 0x0bc73d7a
0, 19, 19, 1, 152064, 0xb58a8b87
0, 21, 21, 1, 152064, 0xddbc5468
0, 23, 23, 1, 152064, 0xcfa30b64
0, 24, 24, 1, 152064, 0xad411f36
0, 26, 26, 1, 152064, 0x2f8c4d9b
0, 28, 28, 1, 152064, 0xc8523359
0, 29, 29, 1, 152064, 0x86be9861
0, 30, 30, 1, 152064, 0x7518d731
0, 32, 32, 1, 152064, 0x425fbfab
0, 34, 34, 1, 152064, 0x4f00250d
0, 36, 36, 1, 152064, 0x12b40617
0, 38, 38, 1, 152064, 0x65ff925d
0, 40, 40, 1, 152064, 0xc76a94c9
0, 41, 41, 1, 152064, 0x640170d5
0, 43, 43, 1, 152064, 0xd338a090
0, 44, 44, 1, 152064, 0xce715174
0, 46, 46, 1, 152064, 0x7bded195
0, 48, 48, 1, 152064, 0x09e7d3b9
0, 50, 50, 1, 152064, 0x651e1518
0, 51, 51, 1, 152064, 0x03cadc5f
0, 52, 52, 1, 152064, 0x08906919
0, 54, 54, 1, 152064, 0x3303ebe0
0, 56, 56, 1, 152064, 0xa28676c5
0, 58, 58, 1, 152064, 0x3900ecaf
0, 60, 60, 1, 152064, 0xeb795a05
0, 61, 61, 1, 152064, 0x870034df
0, 63, 63, 1, 152064, 0x69b0527a
0, 64, 64, 1, 152064, 0xb2b314f9
0, 66, 66, 1, 152064, 0x1a44ea1a
0, 67, 67, 1, 152064, 0xe6eaec87
0, 68, 68, 1, 152064, 0xd9ad818e
0, 69, 69, 1, 152064, 0x9c7ff76e
0, 70, 70, 1, 152064, 0x74c45abb
0, 71, 71, 1, 152064, 0x2f4fa5c6
0, 73, 73, 1, 152064, 0x19620702
0, 75, 75, 1, 152064, 0xfc9601f3
0, 77, 77, 1, 152064, 0x33e0d8e7
0, 78, 78, 1, 152064, 0xdf7f2a80
0, 0, 0, 1, 152064, 0xf772f152
0, 1, 1, 1, 152064, 0xc416d300
0, 2, 2, 1, 152064, 0xc2275c94
0, 3, 3, 1, 152064, 0x1bd35645
0, 4, 4, 1, 152064, 0x60327bf5
0, 5, 5, 1, 152064, 0x7f5541bd
0, 6, 6, 1, 152064, 0x52e5ebad
0, 7, 7, 1, 152064, 0xb8e5c1f3
0, 8, 8, 1, 152064, 0x2b4e3653
0, 9, 9, 1, 152064, 0x9a8f8499
0, 10, 10, 1, 152064, 0x32d4e9fb
0, 11, 11, 1, 152064, 0x0bc73d7a
0, 12, 12, 1, 152064, 0xb58a8b87
0, 13, 13, 1, 152064, 0xddbc5468
0, 14, 14, 1, 152064, 0xcfa30b64
0, 15, 15, 1, 152064, 0xad411f36
0, 16, 16, 1, 152064, 0x2f8c4d9b
0, 17, 17, 1, 152064, 0xc8523359
0, 18, 18, 1, 152064, 0x86be9861
0, 19, 19, 1, 152064, 0x7518d731
0, 20, 20, 1, 152064, 0x425fbfab
0, 21, 21, 1, 152064, 0x4f00250d
0, 22, 22, 1, 152064, 0x12b40617
0, 23, 23, 1, 152064, 0x65ff925d
0, 24, 24, 1, 152064, 0xc76a94c9
0, 25, 25, 1, 152064, 0x640170d5
0, 26, 26, 1, 152064, 0xd338a090
0, 27, 27, 1, 152064, 0xce715174
0, 28, 28, 1, 152064, 0x7bded195
0, 29, 29, 1, 152064, 0x09e7d3b9
0, 30, 30, 1, 152064, 0x651e1518
0, 31, 31, 1, 152064, 0x03cadc5f
0, 32, 32, 1, 152064, 0x08906919
0, 33, 33, 1, 152064, 0x3303ebe0
0, 34, 34, 1, 152064, 0xa28676c5
0, 35, 35, 1, 152064, 0x3900ecaf
0, 36, 36, 1, 152064, 0xeb795a05
0, 37, 37, 1, 152064, 0x870034df
0, 38, 38, 1, 152064, 0x69b0527a
0, 39, 39, 1, 152064, 0xb2b314f9
0, 40, 40, 1, 152064, 0x1a44ea1a
0, 41, 41, 1, 152064, 0xe6eaec87
0, 42, 42, 1, 152064, 0xd9ad818e
0, 43, 43, 1, 152064, 0x9c7ff76e
0, 44, 44, 1, 152064, 0x74c45abb
0, 45, 45, 1, 152064, 0x2f4fa5c6
0, 46, 46, 1, 152064, 0x19620702
0, 47, 47, 1, 152064, 0xfc9601f3
0, 48, 48, 1, 152064, 0x33e0d8e7
0, 49, 49, 1, 152064, 0xdf7f2a80
#tb 0: 1/25
0, 2, 2, 1, 518400, 0x99d0df36
0, 4, 4, 1, 518400, 0xa8601c1a
0, 6, 6, 1, 518400, 0x4a17d235
0, 8, 8, 1, 518400, 0x75f23abf
0, 10, 10, 1, 518400, 0x746aad53
0, 12, 12, 1, 518400, 0xb0b8913e
0, 14, 14, 1, 518400, 0x60a27f57
0, 16, 16, 1, 518400, 0xfa227f3e
0, 18, 18, 1, 518400, 0x7a1e57c2
0, 20, 20, 1, 518400, 0xcbbaa84f
0, 22, 22, 1, 518400, 0xf9c1bd13
0, 24, 24, 1, 518400, 0x9e80caaf
0, 26, 26, 1, 518400, 0x14cc6928
0, 28, 28, 1, 518400, 0xca0353ef
0, 30, 30, 1, 518400, 0xcad65e5f
0, 32, 32, 1, 518400, 0xd5bc47b3
0, 34, 34, 1, 518400, 0xa9893d36
0, 36, 36, 1, 518400, 0x69bd9085
0, 38, 38, 1, 518400, 0xff33c476
0, 40, 40, 1, 518400, 0x9538adf7
0, 42, 42, 1, 518400, 0xd4ff3b62
0, 44, 44, 1, 518400, 0x021a11fd
0, 46, 46, 1, 518400, 0x293e6f9f
0, 48, 48, 1, 518400, 0x5d38e4c3
0, 50, 50, 1, 518400, 0xd1f4ad49
0, 52, 52, 1, 518400, 0xf13dd946
0, 54, 54, 1, 518400, 0x0359e9ff
0, 56, 56, 1, 518400, 0xb61098ad
0, 58, 58, 1, 518400, 0xa855b11c
0, 59, 59, 1, 518400, 0x7fcf9343
0, 0, 0, 1, 518400, 0x99d0df36
0, 1, 1, 1, 518400, 0xa8601c1a
0, 2, 2, 1, 518400, 0x4a17d235
0, 3, 3, 1, 518400, 0x75f23abf
0, 4, 4, 1, 518400, 0x746aad53
0, 5, 5, 1, 518400, 0xb0b8913e
0, 6, 6, 1, 518400, 0x60a27f57
0, 7, 7, 1, 518400, 0xfa227f3e
0, 8, 8, 1, 518400, 0x7a1e57c2
0, 9, 9, 1, 518400, 0xcbbaa84f
0, 10, 10, 1, 518400, 0xf9c1bd13
0, 11, 11, 1, 518400, 0x9e80caaf
0, 12, 12, 1, 518400, 0x14cc6928
0, 13, 13, 1, 518400, 0xca0353ef
0, 14, 14, 1, 518400, 0xcad65e5f
0, 15, 15, 1, 518400, 0xd5bc47b3
0, 16, 16, 1, 518400, 0xa9893d36
0, 17, 17, 1, 518400, 0x69bd9085
0, 18, 18, 1, 518400, 0xff33c476
0, 19, 19, 1, 518400, 0x9538adf7
0, 20, 20, 1, 518400, 0xd4ff3b62
0, 21, 21, 1, 518400, 0x021a11fd
0, 22, 22, 1, 518400, 0x293e6f9f
0, 23, 23, 1, 518400, 0x5d38e4c3
0, 24, 24, 1, 518400, 0xd1f4ad49
0, 25, 25, 1, 518400, 0xf13dd946
0, 26, 26, 1, 518400, 0x0359e9ff
0, 27, 27, 1, 518400, 0xb61098ad
0, 28, 28, 1, 518400, 0xa855b11c
0, 29, 29, 1, 518400, 0x7fcf9343
#tb 0: 1/25
0, 1, 1, 1, 518400, 0xf6b83a0e
0, 3, 3, 1, 518400, 0xc5e8b8ee
0, 4, 4, 1, 518400, 0xb3bc6e43
0, 5, 5, 1, 518400, 0x5b08dc73
0, 6, 6, 1, 518400, 0x4a7f7690
0, 8, 8, 1, 518400, 0x8a9f4275
0, 10, 10, 1, 518400, 0xc7cb92fd
0, 12, 12, 1, 518400, 0xc721e231
0, 13, 13, 1, 518400, 0xfb31371b
0, 14, 14, 1, 518400, 0xac57f5d9
0, 15, 15, 1, 518400, 0x92b7debc
0, 17, 17, 1, 518400, 0xfe3e533e
0, 19, 19, 1, 518400, 0x1b3a7a72
0, 21, 21, 1, 518400, 0x98df2d81
0, 22, 22, 1, 518400, 0xe0ce9c52
0, 23, 23, 1, 518400, 0x6a31166d
0, 24, 24, 1, 518400, 0x64ffd4d2
0, 26, 26, 1, 518400, 0x3ec062ef
0, 28, 28, 1, 518400, 0x3480fae1
0, 30, 30, 1, 518400, 0xa87ae4b7
0, 31, 31, 1, 518400, 0xd301319f
0, 32, 32, 1, 518400, 0xa9284989
0, 33, 33, 1, 518400, 0x3de73b50
0, 35, 35, 1, 518400, 0x30a79f84
0, 37, 37, 1, 518400, 0x7d5152d4
0, 39, 39, 1, 518400, 0x25514095
0, 40, 40, 1, 518400, 0x1749a05f
0, 41, 41, 1, 518400, 0x598139a7
0, 43, 43, 1, 518400, 0x3cece862
0, 44, 44, 1, 518400, 0xe1c27efe
0, 0, 0, 1, 518400, 0xf6b83a0e
0, 1, 1, 1, 518400, 0xc5e8b8ee
0, 2, 2, 1, 518400, 0xb3bc6e43
0, 3, 3, 1, 518400, 0x5b08dc73
0, 4, 4, 1, 518400, 0x4a7f7690
0, 5, 5, 1, 518400, 0x8a9f4275
0, 6, 6, 1, 518400, 0xc7cb92fd
0, 7, 7, 1, 518400, 0xc721e231
0, 8, 8, 1, 518400, 0xfb31371b
0, 9, 9, 1, 518400, 0xac57f5d9
0, 10, 10, 1, 518400, 0x92b7debc
0, 11, 11, 1, 518400, 0xfe3e533e
0, 12, 12, 1, 518400, 0x1b3a7a72
0, 13, 13, 1, 518400, 0x98df2d81
0, 14, 14, 1, 518400, 0xe0ce9c52
0, 15, 15, 1, 518400, 0x6a31166d
0, 16, 16, 1, 518400, 0x64ffd4d2
0, 17, 17, 1, 518400, 0x3ec062ef
0, 18, 18, 1, 518400, 0x3480fae1
0, 19, 19, 1, 518400, 0xa87ae4b7
0, 20, 20, 1, 518400, 0xd301319f
0, 21, 21, 1, 518400, 0xa9284989
0, 22, 22, 1, 518400, 0x3de73b50
0, 23, 23, 1, 518400, 0x30a79f84
0, 24, 24, 1, 518400, 0x7d5152d4
0, 25, 25, 1, 518400, 0x25514095
0, 26, 26, 1, 518400, 0x1749a05f
0, 27, 27, 1, 518400, 0x598139a7
0, 28, 28, 1, 518400, 0x3cece862
0, 29, 29, 1, 518400, 0xe1c27efe
#tb 0: 1/25
0, 1, 1, 1, 518400, 0xd9444d71
0, 3, 3, 1, 518400, 0x5d8928cd
0, 5, 5, 1, 518400, 0xea5bc08b
0, 7, 7, 1, 518400, 0xb4465d31
0, 9, 9, 1, 518400, 0x983b5dbb
0, 11, 11, 1, 518400, 0x54936746
0, 13, 13, 1, 518400, 0x7ae38b02
0, 15, 15, 1, 518400, 0xc2a0dd83
0, 17, 17, 1, 518400, 0x61cac7a6
0, 19, 19, 1, 518400, 0xb0038443
0, 21, 21, 1, 518400, 0x16514296
0, 23, 23, 1, 518400, 0xa68dd470
0, 25, 25, 1, 518400, 0x2572f868
0, 27, 27, 1, 518400, 0x770a3239
0, 29, 29, 1, 518400, 0xdd04f6d2
0, 31, 31, 1, 518400, 0xa5e5d01e
0, 33, 33, 1, 518400, 0x5fe25c86
0, 0, 0, 1, 518400, 0xd9444d71
0, 1, 1, 1, 518400, 0x5d8928cd
0, 2, 2, 1, 518400, 0xea5bc08b
0, 3, 3, 1, 518400, 0xb4465d31
0, 4, 4, 1, 518400, 0x983b5dbb
0, 5, 5, 1, 518400, 0x54936746
0, 6, 6, 1, 518400, 0x7ae38b02
0, 7, 7, 1, 518400, 0xc2a0dd83
0, 8, 8, 1, 518400, 0x61cac7a6
0, 9, 9, 1, 518400, 0xb0038443
0, 10, 10, 1, 518400, 0x16514296
0, 11, 11, 1, 518400, 0xa68dd470
0, 12, 12, 1, 518400, 0x2572f868
0, 13, 13, 1, 518400, 0x770a3239
0, 14, 14, 1, 518400, 0xdd04f6d2
0, 15, 15, 1, 518400, 0xa5e5d01e
0, 16, 16, 1, 518400, 0x5fe25c86
#tb 0: 1/25
0, 1, 1, 1, 518400, 0x8f022263
0, 3, 3, 1, 518400, 0x02692654
0, 5, 5, 1, 518400, 0x55eff579
0, 7, 7, 1, 518400, 0x6c1bdf1d
0, 9, 9, 1, 518400, 0xbbedf5e4
0, 11, 11, 1, 518400, 0xb90d740d
0, 13, 13, 1, 518400, 0x81300adb
0, 0, 0, 1, 518400, 0x8f022263
0, 1, 1, 1, 518400, 0x02692654
0, 2, 2, 1, 518400, 0x55eff579
0, 3, 3, 1, 518400, 0x6c1bdf1d
0, 4, 4, 1, 518400, 0xbbedf5e4
0, 5, 5, 1, 518400, 0xb90d740d
0, 6, 6, 1, 518400, 0x81300adb
#tb 0: 1/25
0, 3, 3, 1, 518400, 0xd9444d71
0, 5, 5, 1, 518400, 0x491faf75
0, 7, 7, 1, 518400, 0xf8b4d15c
0, 9, 9, 1, 518400, 0x99d9f60c
0, 11, 11, 1, 518400, 0x46c17a6d
0, 13, 13, 1, 518400, 0x30b9447d
0, 15, 15, 1, 518400, 0x135d0c76
0, 17, 17, 1, 518400, 0x1b831a3c
0, 19, 19, 1, 518400, 0x5910def8
0, 21, 21, 1, 518400, 0x8db90147
0, 23, 23, 1, 518400, 0x6a2b79c7
0, 25, 25, 1, 518400, 0xc8d302e5
0, 27, 27, 1, 518400, 0x515bb024
0, 29, 29, 1, 518400, 0xedf7836c
0, 31, 31, 1, 518400, 0x7e247b9d
0, 32, 32, 1, 518400, 0x10c9bb10
0, 33, 33, 1, 518400, 0xe38e2807
0, 0, 0, 1, 518400, 0xd9444d71
0, 1, 1, 1, 518400, 0x491faf75
0, 2, 2, 1, 518400, 0xf8b4d15c
0, 3, 3, 1, 518400, 0x99d9f60c
0, 4, 4, 1, 518400, 0x46c17a6d
0, 5, 5, 1, 518400, 0x30b9447d
0, 6, 6, 1, 518400, 0x135d0c76
0, 7, 7, 1, 518400, 0x1b831a3c
0, 8, 8, 1, 518400, 0x5910def8
0, 9, 9, 1, 518400, 0x8db90147
0, 10, 10, 1, 518400, 0x6a2b79c7
0, 11, 11, 1, 518400, 0xc8d302e5
0, 12, 12, 1, 518400, 0x515bb024
0, 13, 13, 1, 518400, 0xedf7836c
0, 14, 14, 1, 518400, 0x7e247b9d
0, 15, 15, 1, 518400, 0x10c9bb10
0, 16, 16, 1, 518400, 0xe38e2807
#tb 0: 1/25
0, 2, 2, 1, 518400, 0x4073cc0b
0, 4, 4, 1, 518400, 0x5f599a48
0, 6, 6, 1, 518400, 0xc6fe555a
0, 8, 8, 1, 518400, 0xe63ac345
0, 10, 10, 1, 518400, 0x9b4f0c5c
0, 12, 12, 1, 518400, 0x98aaba2d
0, 14, 14, 1, 518400, 0xd629bd09
0, 16, 16, 1, 518400, 0xe9796c37
0, 18, 18, 1, 518400, 0xba54d16e
0, 20, 20, 1, 518400, 0xe396c3eb
0, 22, 22, 1, 518400, 0x63ee4b81
0, 24, 24, 1, 518400, 0x68ac6986
0, 25, 25, 1, 518400, 0xe0d53000
0, 0, 0, 1, 518400, 0x4073cc0b
0, 1, 1, 1, 518400, 0x5f599a48
0, 2, 2, 1, 518400, 0xc6fe555a
0, 3, 3, 1, 518400, 0xe63ac345
0, 4, 4, 1, 518400, 0x9b4f0c5c
0, 5, 5, 1, 518400, 0x98aaba2d
0, 6, 6, 1, 518400, 0xd629bd09
0, 7, 7, 1, 518400, 0xe9796c37
0, 8, 8, 1, 518400, 0xba54d16e
0, 9, 9, 1, 518400, 0xe396c3eb
0, 10, 10, 1, 518400, 0x63ee4b81
0, 11, 11, 1, 518400, 0x68ac6986
0, 12, 12, 1, 518400, 0xe0d53000
#tb 0: 1/25
0, 2, 2, 1, 518400, 0x80dffda2
0, 4, 4, 1, 518400, 0x9450183b
0, 6, 6, 1, 518400, 0x85d429a7
0, 7, 7, 1, 518400, 0xe1f3b686
0, 9, 9, 1, 518400, 0x2180c761
0, 11, 11, 1, 518400, 0x30269c7c
0, 12, 12, 1, 518400, 0xe9aa575a
0, 13, 13, 1, 518400, 0x7b815a0a
0, 0, 0, 1, 518400, 0x80dffda2
0, 1, 1, 1, 518400, 0x9450183b
0, 2, 2, 1, 518400, 0x85d429a7
0, 3, 3, 1, 518400, 0xe1f3b686
0, 4, 4, 1, 518400, 0x2180c761
0, 5, 5, 1, 518400, 0x30269c7c
0, 6, 6, 1, 518400, 0xe9aa575a
0, 7, 7, 1, 518400, 0x7b815a0a
#tb 0: 1/25
0, 2, 2, 1, 518400, 0xe9c7643e
0, 4, 4, 1, 518400, 0xba7456ec
0, 6, 6, 1, 518400, 0xdeb96749
0, 8, 8, 1, 518400, 0xa101a986
0, 10, 10, 1, 518400, 0x3db7baa5
0, 12, 12, 1, 518400, 0xf3dfcec7
0, 14, 14, 1, 518400, 0x79b4f537
0, 16, 16, 1, 518400, 0x9e64fe68
0, 18, 18, 1, 518400, 0x0e810b53
0, 20, 20, 1, 518400, 0x20baf3b8
0