Commit cfb4ee30 authored by Vittorio Giovara's avatar Vittorio Giovara

fate: add a pngparser test

parent eddff165
......@@ -4,6 +4,9 @@ fate-dpx: CMD = framecrc -i $(TARGET_SAMPLES)/dpx/lighthouse_rgb48.dpx
FATE_SAMPLES_AVCONV-$(call DEMDEC, IMAGE2, PICTOR) += fate-pictor
fate-pictor: CMD = framecrc -i $(TARGET_SAMPLES)/pictor/MFISH.PIC -pix_fmt rgb24
FATE_SAMPLES_AVCONV-$(call PARSERDEMDEC, PNG, IMAGE2PIPE, PNG) += fate-pngparser
fate-pngparser: CMD = framecrc -f image2pipe -i $(TARGET_SAMPLES)/png1/libav_4x_concat.png
FATE_SAMPLES_AVCONV-$(call DEMDEC, IMAGE2, PTX) += fate-ptx
fate-ptx: CMD = framecrc -i $(TARGET_SAMPLES)/ptx/_113kw_pic.ptx -pix_fmt rgb24
......
#tb 0: 1/25
0, 0, 0, 1, 271040, 0xffe62f5f
0, 1, 1, 1, 271040, 0xcf502f5f
0, 2, 2, 1, 271040, 0x72612f5f
0, 3, 3, 1, 271040, 0x41cb2f5f
Markdown is supported
0% or .
You are about to add 0 people to the discussion. Proceed with caution.
Finish editing this message first!
Please register or to comment